Skip to main content

Shakedown Live at Camp Kee-Wamee on 2013-09-13

Audio Preview

etree
Shakedown Live at Camp Kee-Wamee on 2013-09-13


Topics Wormfest 2013


Shakedown
2013-09-13
Wormtown Music Festival
Camp KeeWanee
Greenfield, MA
Main Stage

DPA 4011 > V3 Digital + SBD > DR680 (24/48)
SDHC Card > Sound Forge Pro 10.0 (Mix, Normalize, Fades, resample iZotope 64-Bit SRC, dither iZotope MBIT+ Dither) > CD Wav (tracking) > TLH > Flac (level 8)
TS at front corner of FOH (ROC)/ORTF/approx. 8' high

Taped and Transferred by Brian V.


Set 1

01. Jack Straw
02. Greatest Story Ever Told
03. Mister Charlie
04. Brown Eyed Women
05. Cassidy
06. Feel Like A Stranger
07. Scarlet Begonias >
08. Fire On The Mountain
09. The Music Never Stopped
10. Turn on Your Love Light
11. Jack-a-Roe


Collection ShakedownBand
Band/Artist Shakedown
Venue Camp Kee-Wamee
Location Greenfield, MA

Source DPA 4011 > V3 Digital + SBD > DR680 (24/48)
Lineage SDHC Card > Sound Forge Pro 10.0 (Mix, Normalize, Fades, resample iZotope 64-Bit SRC, dither iZotope MBIT+ Dither) > CD Wav (tracking) > TLH > Flac (level 8)
Taped by Brian V.
Transferred by Brian V.

Notes

the recording was stopped between Love Light and Jack-a-Roe and restarted. Jack-a-Roe starts up just as the music was starting.

Thanks to everyone that put Wormtown Music Festival together and for the tapers spot.
***Support Bands That Allow Taping/Trading***

shntool output
length expanded size cdr WAVE problems fmt ratio filename
5:59.42 63426428 B --- -- ---xx flac 0.5109 shakedown2013-09-13s1t01.flac
6:26.61 68233916 B --- -- ---xx flac 0.5410 shakedown2013-09-13s1t02.flac
5:25.54 57457052 B --- -- ---xx flac 0.5615 shakedown2013-09-13s1t03.flac
7:44.25 81908444 B --- -- ---xx flac 0.5218 shakedown2013-09-13s1t04.flac
8:09.61 86403116 B --- -- ---xx flac 0.5195 shakedown2013-09-13s1t05.flac
9:11.44 97299932 B --- -- ---xx flac 0.5648 shakedown2013-09-13s1t06.flac
8:47.13 92993420 B --- -- ---xx flac 0.5696 shakedown2013-09-13s1t07.flac
11:39.63 123451820 B --- -- ---xx flac 0.5498 shakedown2013-09-13s1t08.flac
7:08.63 75647420 B --- -- ---xx flac 0.5365 shakedown2013-09-13s1t09.flac
9:19.13 98638220 B --- -- ---xx flac 0.5146 shakedown2013-09-13s1t10.flac
5:41.73 60324140 B --- -- ---xx flac 0.5647 shakedown2013-09-13s1t11.flac
85:34.62 905783908 B 0.5414 (11 files)

comment
Reviews

There are no reviews yet. Be the first one to write a review.
DOWNLOAD OPTIONS
In Collection
Shakedown
In Collection
Live Music Archive
Uploaded by
Brian V.
on 10/14/2013
Views
75
SIMILAR ITEMS (based on metadata)
eye
Title
Date Archived
Creator
Shakedown
by Shakedown
etree
eye 49
favorite 0
comment 0
Source: DPA 4011 > V3 Digital + SBD > DR680 (24/48)
Shakedown
by Shakedown
etree
eye 85
favorite 0
comment 0
Source: BSC1 (hypers) > FR-2LE [BA TMod] (24/48)
Shakedown
by Shakedown
etree
eye 130
favorite 1
comment 0
Source: BSC1 (hypers) > FR-2LE [BA TMod] (24/48)
Shakedown
etree
eye 95
favorite 0
comment 0
Source: AKG 393> mini-me> + SB R-44
Shakedown
by Shakedown
etree
eye 29
favorite 1
comment 0
Source: akg461> Naiant midbox + sbd>R44
Shakedown
etree
eye 42
favorite 0
comment 0
Source: source1: akg 481 > Lunatec V2 > Edirol R-44 > WAV (24/48k), source2: sbd > Edirol R-44 > WAV (24/48k)
Shakedown
etree
eye 47
favorite 0
comment 0
Source: source1: akg 461 > Lunatec V2 > Edirol R-44 > WAV (24/48k), source2: sbd > Edirol R-09HR > WAV (24/48k)
Shakedown
etree
eye 125
favorite 0
comment 0
Source: akg481>V2 + SBD>Busman R4@2444
Shakedown
etree
eye 175
favorite 0
comment 0
Source: akg 463 > oade acm marantz 671 > WAV (24/48k)
Shakedown
etree
eye 63
favorite 1
comment 0
Source: akg391>R44 + sbd>R44 @ 2444